<?xml version="1.0" standalone="no"?>
<!DOCTYPE svg PUBLIC "-//W3C//DTD SVG 1.1//EN" "http://www.w3.org/Graphics/SVG/1.1/DTD/svg11.dtd">
<svg xmlns="http://www.w3.org/2000/svg">
<metadata>Generated by Fontastic.me</metadata>
<defs>
<font id="untitled-font-1" horiz-adv-x="512">
<font-face font-family="untitled-font-1" units-per-em="512" ascent="480" descent="-32"/>
<missing-glyph horiz-adv-x="512" />

<glyph unicode="&#97;" d="M113 252l133-187c2-3 6-5 10-5 0 0 0 0 0 0 5 0 9 2 11 5l132 187c3 4 4 9 1 13-2 4-6 7-11 7l-62 0 0 167c0 8-6 13-13 13l-116 0c-7 0-13-5-13-13l0-167-62 0c-5 0-9-3-11-7-3-4-2-10 1-13z"/>
<glyph unicode="&#98;" d="M252 399l-187-133c-3-2-5-6-5-10 0 0 0 0 0 0 0-5 2-9 5-11l187-132c4-3 9-4 13-1 4 2 7 6 7 11l0 62 167 0c8 0 13 6 13 13l0 116c0 7-5 13-13 13l-167 0 0 62c0 5-3 9-7 11-4 3-10 2-13-1z"/>
<glyph unicode="&#99;" d="M260 113l187 133c3 2 5 6 5 10 0 0 0 0 0 0 0 5-2 9-5 11l-187 132c-4 3-9 4-13 1-4-2-7-6-7-11l0-62-167 0c-8 0-13-6-13-13l0-116c0-7 5-13 13-13l167 0 0-62c0-5 3-9 7-11 4-3 10-2 13 1z"/>
<glyph unicode="&#100;" d="M399 260l-133 187c-2 3-6 5-10 5 0 0 0 0 0 0-5 0-9-2-11-5l-132-187c-3-4-4-9-1-13 2-4 6-7 11-7l62 0 0-167c0-8 6-13 13-13l116 0c7 0 13 5 13 13l0 167 62 0c5 0 9 3 11 7 3 4 2 10-1 13z"/>
<glyph unicode="&#101;" d="M201 59l26 158c0 3-1 6-3 8 0 0 0 0 0 0-2 2-5 3-8 2l-157-26c-3-1-6-3-7-7-1-3 0-6 2-9l31-30-82-83c-4-3-4-9 0-13l56-56c4-4 10-4 13 0l83 82 30-31c3-2 6-3 9-2 4 1 6 4 7 7z m110 394l-26-158c0-3 1-6 3-8 0 0 0 0 0 0 2-2 5-3 8-2l157 26c3 1 6 3 7 7 1 3 0 6-2 9l-31 30 82 83c4 3 4 9 0 13l-56 56c-4 4-10 4-13 0l-83-82-30 31c-3 2-6 3-9 2-4-1-6-4-7-7z"/>
<glyph unicode="&#102;" d="M26 168l-26-158c0-2 1-5 3-7 0 0 0 0 0 0 2-2 5-3 7-3l158 27c3 0 6 3 7 6 1 3 0 7-3 9l-30 31 82 82c4 4 4 9 0 13l-57 57c-3 3-9 3-12 0l-83-83-31 31c-2 2-5 3-9 2-3-1-5-4-6-7z m460 176l26 158c0 2-1 5-3 7 0 0 0 0 0 0-2 2-5 3-7 3l-158-27c-3 0-6-3-7-6-1-3 0-7 3-9l30-31-82-82c-4-4-4-9 0-13l57-57c3-3 9-3 12 0l83 83 31-31c2-2 5-3 9-2 3 1 5 4 6 7z"/>
<glyph unicode="&#103;" d="M184 54l24 145c1 3 0 5-2 7 0 0 0 0 0 0-2 2-5 3-7 3l-145-25c-3 0-5-2-6-5-1-3 0-7 2-9l28-28-76-76c-3-3-3-8 0-11l53-53c3-3 8-3 11 0l76 76 28-28c3-2 6-3 9-2 3 1 5 3 5 6z m144 404l-24-145c-1-3 0-5 2-7 0 0 0 0 0 0 2-2 5-3 7-3l145 25c3 0 5 2 6 5 1 3 0 7-2 9l-28 28 76 76c3 3 3 8 0 11l-53 53c-3 3-8 3-11 0l-76-76-28 28c-3 2-6 3-9 2-3-1-5-3-5-6z m130-274l-145 24c-3 1-5 0-7-2 0 0 0 0 0 0-2-2-3-5-3-7l25-145c0-3 2-5 5-6 3-1 7 0 9 2l28 28 76-76c3-3 8-3 11 0l53 53c3 3 3 8 0 11l-76 76 28 28c2 3 3 6 2 9-1 3-3 5-6 5z m-404 144l145-24c3-1 5 0 7 2 0 0 0 0 0 0 2 2 3 5 3 7l-25 145c0 3-2 5-5 6-3 1-6 0-9-2l-28-28-76 76c-3 3-8 3-11 0l-53-53c-3-3-3-8 0-11l76-76-28-28c-2-3-3-6-2-9 1-3 3-5 6-5z"/>
<glyph unicode="&#104;" d="M24 154l-24-144c0-3 1-6 2-8 0 0 0 0 0 0 2-1 5-2 8-2l144 25c3 0 6 2 6 5 1 3 1 6-2 8l-28 29 76 75c3 4 3 9 0 12l-52 52c-3 4-9 4-12 0l-76-75-28 28c-2 2-5 3-8 2-3-1-5-4-6-7z m464 204l24 144c0 3-1 6-2 8 0 0 0 0 0 0-2 1-5 2-8 2l-144-25c-3 0-6-2-6-5-1-3-1-6 2-8l28-29-76-75c-3-4-3-9 0-12l52-52c3-4 9-4 12 0l76 75 28-28c2-2 5-3 8-2 3 1 5 4 6 7z m-130-334l144-24c3 0 6 1 8 2 0 0 0 0 0 0 1 2 2 5 2 8l-25 144c0 3-2 6-5 6-3 1-6 1-8-2l-29-28-75 76c-4 3-9 3-12 0l-52-52c-4-3-4-9 0-12l75-76-28-28c-2-2-3-5-2-8 1-3 4-5 7-6z m-204 464l-144 24c-3 0-6-1-8-2 0 0 0 0 0 0-1-2-2-5-2-8l25-144c0-3 2-6 5-6 3-1 6-1 8 2l29 28 75-76c4-3 9-3 12 0l52 52c4 3 4 9 0 12l-75 76 28 28c2 2 3 5 2 8-1 3-4 5-7 6z"/>
<glyph unicode="&#105;" d="M269 141l130 130c3 3 5 7 5 12 0 5-2 10-5 13l-30 29c-3 4-7 6-12 6-5 0-10-2-13-6l-88-87-88 87c-3 4-8 6-13 6-5 0-9-2-12-6l-30-29c-3-3-5-8-5-13 0-5 2-9 5-12l130-130c4-4 8-6 13-6 5 0 9 2 13 6z m206 115c0-40-9-77-29-110-20-34-46-60-80-80-33-20-70-29-110-29-40 0-77 9-110 29-34 20-60 46-80 80-20 33-29 70-29 110 0 40 9 77 29 110 20 34 46 60 80 80 33 20 70 29 110 29 40 0 77-9 110-29 34-20 60-46 80-80 20-33 29-70 29-110z"/>
<glyph unicode="&#106;" d="M369 187l30 29c3 3 5 8 5 13 0 5-2 9-5 12l-130 130c-4 4-8 6-13 6-5 0-9-2-13-6l-130-130c-3-3-5-7-5-12 0-5 2-10 5-13l30-29c3-4 7-6 12-6 5 0 10 2 13 6l88 87 88-87c3-4 8-6 13-6 5 0 9 2 12 6z m106 69c0-40-9-77-29-110-20-34-46-60-80-80-33-20-70-29-110-29-40 0-77 9-110 29-34 20-60 46-80 80-20 33-29 70-29 110 0 40 9 77 29 110 20 34 46 60 80 80 33 20 70 29 110 29 40 0 77-9 110-29 34-20 60-46 80-80 20-33 29-70 29-110z"/>
<glyph unicode="&#107;" d="M241 113l130 130c4 4 6 8 6 13 0 5-2 9-6 13l-130 130c-3 3-7 5-12 5-5 0-10-2-13-5l-29-30c-4-3-6-7-6-12 0-5 2-10 6-13l87-88-87-88c-4-3-6-8-6-13 0-5 2-9 6-12l29-30c3-3 8-5 13-5 5 0 9 2 12 5z m234 143c0-40-9-77-29-110-20-34-46-60-80-80-33-20-70-29-110-29-40 0-77 9-110 29-34 20-60 46-80 80-20 33-29 70-29 110 0 40 9 77 29 110 20 34 46 60 80 80 33 20 70 29 110 29 40 0 77-9 110-29 34-20 60-46 80-80 20-33 29-70 29-110z"/>
<glyph unicode="&#108;" d="M296 113l29 30c4 3 6 7 6 12 0 5-2 10-6 13l-87 88 87 88c4 3 6 8 6 13 0 5-2 9-6 12l-29 30c-3 3-8 5-13 5-5 0-9-2-12-5l-130-130c-4-4-6-8-6-13 0-5 2-9 6-13l130-130c3-3 7-5 12-5 5 0 10 2 13 5z m179 143c0-40-9-77-29-110-20-34-46-60-80-80-33-20-70-29-110-29-40 0-77 9-110 29-34 20-60 46-80 80-20 33-29 70-29 110 0 40 9 77 29 110 20 34 46 60 80 80 33 20 70 29 110 29 40 0 77-9 110-29 34-20 60-46 80-80 20-33 29-70 29-110z"/>
<glyph unicode="&#109;" d="M399 174c0-3-1-5-3-7l-15-14c-1-2-4-3-6-3-3 0-5 1-7 3l-112 112-112-112c-2-2-4-3-7-3-2 0-5 1-6 3l-15 14c-2 2-3 4-3 7 0 2 1 4 3 6l133 133c2 2 5 3 7 3 2 0 5-1 7-3l133-133c2-2 3-4 3-6z"/>
<glyph unicode="&#110;" d="M335 238c0-3-1-5-3-7l-133-133c-2-2-5-3-7-3-2 0-5 1-7 3l-14 14c-2 2-3 4-3 7 0 2 1 5 3 6l112 113-112 112c-2 2-3 4-3 7 0 2 1 4 3 6l14 14c2 2 5 3 7 3 2 0 5-1 7-3l133-133c2-2 3-4 3-6z"/>
<glyph unicode="&#111;" d="M344 357c0-3-1-5-3-7l-112-112 112-113c2-1 3-4 3-6 0-3-1-5-3-7l-14-14c-2-2-5-3-7-3-2 0-5 1-7 3l-133 133c-2 2-3 4-3 7 0 2 1 4 3 6l133 133c2 2 5 3 7 3 2 0 5-1 7-3l14-14c2-2 3-4 3-6z"/>
<glyph unicode="&#112;" d="M479 311c0-10-4-19-11-26l-186-186c-7-7-16-11-26-11-10 0-19 4-26 11l-186 186c-7 7-11 16-11 26 0 10 4 19 11 26l21 21c8 7 17 11 26 11 11 0 19-4 26-11l139-139 139 139c7 7 15 11 26 11 9 0 18-4 26-11l21-21c7-8 11-16 11-26z"/>
<glyph unicode="&#113;" d="M479 165c0-11-4-19-11-26l-21-22c-8-7-16-10-26-10-11 0-19 3-26 10l-139 139-139-139c-7-7-15-10-26-10-10 0-18 3-25 10l-22 22c-7 7-11 15-11 26 0 10 4 18 11 26l186 186c7 7 16 10 26 10 10 0 19-3 26-10l186-186c7-8 11-16 11-26z"/>
<glyph unicode="&#114;" d="M256 238l0-128c0-5-2-10-5-13-4-4-8-6-13-6-5 0-10 2-13 6l-41 41-95-95c-2-2-4-3-7-3-2 0-4 1-6 3l-33 33c-2 2-3 4-3 6 0 3 1 5 3 7l95 95-41 41c-4 3-6 8-6 13 0 5 2 9 6 13 3 3 8 5 13 5l128 0c5 0 9-2 13-5 3-4 5-8 5-13z m216 192c0-3-1-5-3-7l-95-95 41-41c4-3 6-8 6-13 0-5-2-9-6-13-3-3-8-5-13-5l-128 0c-5 0-9 2-13 5-3 4-5 8-5 13l0 128c0 5 2 10 5 13 4 4 8 6 13 6 5 0 10-2 13-6l41-41 95 95c2 2 4 3 7 3 2 0 4-1 6-3l33-33c2-2 3-4 3-6z"/>
<glyph unicode="&#115;" d="M252 210c0-2-1-4-3-6l-94-95 41-41c3-4 5-8 5-13 0-5-2-9-5-13-4-4-8-5-13-5l-128 0c-5 0-9 1-13 5-4 4-5 8-5 13l0 128c0 5 1 9 5 13 4 3 8 5 13 5 5 0 9-2 13-5l41-41 95 94c2 2 4 3 6 3 3 0 5-1 7-3l32-32c2-2 3-4 3-7z m223 247l0-128c0-5-1-9-5-13-4-3-8-5-13-5-5 0-9 2-13 5l-41 41-95-94c-2-2-4-3-6-3-3 0-5 1-7 3l-32 32c-2 2-3 4-3 7 0 2 1 4 3 6l94 95-41 41c-3 4-5 8-5 13 0 5 2 9 5 13 4 4 8 5 13 5l128 0c5 0 9-1 13-5 4-4 5-8 5-13z"/>
<glyph unicode="&#116;" d="M479 274c0-10-4-18-11-25l-186-187c-7-7-16-10-26-10-10 0-19 3-26 10l-186 187c-7 6-11 15-11 25 0 10 4 19 11 26l21 22c8 7 17 10 26 10 11 0 19-3 26-10l84-84 0 201c0 10 4 18 11 26 7 7 16 10 26 10l36 0c10 0 19-3 26-10 7-8 11-16 11-26l0-201 84 84c7 7 15 10 26 10 9 0 18-3 26-10l21-22c7-7 11-16 11-26z"/>
<glyph unicode="&#117;" d="M479 235c0-10-4-19-11-26l-21-22c-8-7-16-10-26-10-11 0-19 3-26 10l-84 84 0-201c0-10-4-18-11-24-7-6-16-9-26-9l-36 0c-10 0-19 3-26 9-7 6-11 14-11 24l0 201-84-84c-7-7-15-10-26-10-10 0-18 3-25 10l-22 22c-7 7-11 16-11 26 0 10 4 18 11 26l186 186c7 7 16 10 26 10 10 0 19-3 26-10l186-186c7-8 11-17 11-26z"/>
<glyph unicode="&#118;" d="M457 238c0-11-3-19-10-26l-186-186c-8-7-17-11-26-11-10 0-19 4-26 11l-22 21c-7 7-10 16-10 26 0 10 3 19 10 26l84 84-201 0c-10 0-18 3-24 11-6 7-9 15-9 25l0 37c0 10 3 19 9 26 6 7 14 11 24 11l201 0-84 84c-7 6-10 15-10 25 0 11 3 19 10 26l22 21c7 8 16 11 26 11 10 0 18-3 26-11l186-186c7-6 10-15 10-25z"/>
<glyph unicode="&#119;" d="M475 256l0-37c0-10-3-18-9-25-6-8-14-11-24-11l-201 0 84-84c7-7 10-16 10-26 0-10-3-19-10-26l-22-21c-7-7-15-11-26-11-9 0-18 4-26 11l-186 186c-7 7-10 16-10 26 0 10 3 18 10 26l186 185c8 8 16 11 26 11 10 0 19-3 26-11l22-21c7-7 10-16 10-26 0-10-3-18-10-26l-84-83 201 0c10 0 18-4 24-11 6-7 9-16 9-26z"/>
<glyph unicode="&#120;" d="M399 302c0-3-1-5-3-7l-133-133c-2-2-5-3-7-3-2 0-5 1-7 3l-133 133c-2 2-3 4-3 7 0 2 1 4 3 6l15 15c1 1 4 2 6 2 3 0 5-1 7-2l112-113 112 113c2 1 4 2 7 2 2 0 5-1 6-2l15-15c2-2 3-4 3-6z"/>
<glyph unicode="&#121;" d="M303 63l-186 186c-7 7-10 15-10 25 0 11 3 19 10 26l186 186c7 7 16 11 26 11 10 0 19-4 26-11l22-21c7-7 10-16 10-26 0-10-3-19-10-26l-139-139 139-138c7-8 10-16 10-26 0-10-3-19-10-26l-22-21c-7-7-16-11-26-11-10 0-19 4-26 11z"/>
<glyph unicode="&#122;" d="M402 165c0-5-2-10-5-13-4-4-8-6-13-6l-256 0c-5 0-9 2-13 6-3 3-5 8-5 13 0 5 2 9 5 12l128 128c4 4 8 6 13 6 5 0 9-2 13-6l128-128c3-3 5-7 5-12z"/>
<glyph unicode="&#65;" d="M402 201c0-5-2-9-5-13l-128-128c-4-3-8-5-13-5-5 0-9 2-13 5l-128 128c-3 4-5 8-5 13 0 5 2 9 5 13 4 4 8 5 13 5l256 0c5 0 9-1 13-5 3-4 5-8 5-13z"/>
<glyph unicode="&#66;" d="M402 311c0-5-2-9-5-13l-128-128c-4-4-8-5-13-5-5 0-9 1-13 5l-128 128c-3 4-5 8-5 13 0 5 2 9 5 13 4 3 8 5 13 5l256 0c5 0 9-2 13-5 3-4 5-8 5-13z"/>
<glyph unicode="&#67;" d="M512 256c0-5-2-9-5-13l-74-73c-3-4-7-5-12-5-5 0-10 1-13 5-4 4-6 8-6 13l0 36-109 0 0-109 36 0c5 0 9-2 13-6 4-3 5-8 5-13 0-5-1-9-5-12l-73-74c-4-3-8-5-13-5-5 0-9 2-13 5l-73 74c-4 3-5 7-5 12 0 5 1 10 5 13 4 4 8 6 13 6l36 0 0 109-109 0 0-36c0-5-2-9-6-13-3-4-8-5-13-5-5 0-9 1-12 5l-74 73c-3 4-5 8-5 13 0 5 2 9 5 13l74 73c3 4 7 5 12 5 5 0 10-1 13-5 4-4 6-8 6-13l0-36 109 0 0 109-36 0c-5 0-9 2-13 6-4 3-5 8-5 13 0 5 1 9 5 12l73 74c4 3 8 5 13 5 5 0 9-2 13-5l73-74c4-3 5-7 5-12 0-5-1-10-5-13-4-4-8-6-13-6l-36 0 0-109 109 0 0 36c0 5 2 9 6 13 3 4 8 5 13 5 5 0 9-1 12-5l74-73c3-4 5-8 5-13z"/>
<glyph unicode="&#68;" d="M426 134c0-7-3-14-8-19l-39-39c-5-5-12-8-20-8-7 0-14 3-19 8l-84 84-84-84c-5-5-12-8-19-8-8 0-15 3-20 8l-39 39c-5 5-8 12-8 19 0 8 3 14 8 20l84 84-84 84c-5 5-8 12-8 19 0 8 3 14 8 20l39 38c5 6 12 8 20 8 7 0 14-2 19-8l84-84 84 84c5 6 12 8 19 8 8 0 15-2 20-8l39-38c5-6 8-12 8-20 0-7-3-14-8-19l-84-84 84-84c5-6 8-12 8-20z"/>
<glyph unicode="&#69;" d="M434 160l-96 96 96 96c4 4 4 10 0 14l-68 68c-4 4-10 4-14 0l-96-96-96 96c-4 4-11 4-14 0l-68-68c-2-1-3-4-3-7 0-2 1-5 3-7l96-96-96-96c-2-2-3-5-3-7 0-3 1-6 3-7l68-68c1-2 4-3 7-3 2 0 5 1 7 3l96 96 96-96c2-2 5-3 7-3 3 0 5 1 7 3l68 68c4 4 4 10 0 14z"/>
<glyph unicode="&#70;" d="M347 384l0-256c0-5-1-9-5-13-4-3-8-5-13-5-5 0-9 2-13 5l-128 128c-3 4-5 8-5 13 0 5 2 9 5 13l128 128c4 3 8 5 13 5 5 0 9-2 13-5 4-4 5-8 5-13z"/>
<glyph unicode="&#71;" d="M402 311c0-5-2-9-5-13-4-4-8-5-13-5l-256 0c-5 0-9 1-13 5-3 4-5 8-5 13 0 5 2 9 5 13l128 128c4 3 8 5 13 5 5 0 9-2 13-5l128-128c3-4 5-8 5-13z"/>
<glyph unicode="&#72;" d="M329 256c0-5-2-9-5-13l-128-128c-4-3-8-5-13-5-5 0-9 2-13 5-4 4-5 8-5 13l0 256c0 5 1 9 5 13 4 3 8 5 13 5 5 0 9-2 13-5l128-128c3-4 5-8 5-13z"/>
<glyph unicode="&#73;" d="M405 274c0-10-3-18-10-26l-186-186c-7-7-16-10-26-10-10 0-19 3-26 10l-22 22c-7 7-10 16-10 26 0 10 3 18 10 25l139 139-139 139c-7 7-10 16-10 26 0 10 3 19 10 26l22 21c7 7 16 11 26 11 10 0 19-4 26-11l186-186c7-7 10-16 10-26z"/>
<glyph unicode="&#74;" d="M367 176c6-6 9-13 9-22 0-8-3-16-9-22-6-5-13-8-22-8-8 0-16 3-22 8 0 0-68 78-68 78 0 0-67-78-67-78-6-5-14-8-22-8-9 0-16 3-22 8-6 6-8 14-8 22 0 9 2 16 8 22 0 0 71 80 71 80 0 0-71 81-71 81-6 6-8 13-8 22 0 8 2 16 8 22 6 5 13 8 22 8 8 0 16-3 22-8 0 0 67-78 67-78 0 0 68 78 68 78 6 5 14 8 22 8 9 0 16-3 22-8 6-6 9-14 9-22 0-9-3-16-9-22 0 0-71-81-71-81 0 0 71-80 71-80"/>
<glyph unicode="&#75;" d="M425 264c0 0-169-194-169-194 0 0-169 194-169 194 0 0 98 0 98 0 0 0 0 179 0 179 0 0 142 0 142 0 0 0 0-179 0-179 0 0 98 0 98 0"/>
<glyph unicode="&#76;" d="M451 264c0 0-195-194-195-194 0 0-195 194-195 194 0 0 99 0 99 0 0 0 0 179 0 179 0 0 192 0 192 0 0 0 0-179 0-179 0 0 99 0 99 0"/>
<glyph unicode="&#77;" d="M374 358c0 0-118-204-118-204 0 0-118 204-118 204 0 0 236 0 236 0"/>
<glyph unicode="&#78;" d="M396 293c0 0-120-115-120-115-6-6-12-9-20-9-8 0-14 3-20 9 0 0-120 115-120 115-6 5-8 12-8 21 0 8 2 15 8 21 13 13 26 13 40 0 0 0 100-96 100-96 0 0 100 96 100 96 14 13 27 13 40 0 6-6 8-13 8-21 0-9-2-16-8-21"/>
<glyph unicode="&#79;" d="M67 369c0 0 189-183 189-183 0 0 190 183 190 183 8 9 16 9 25 0 9-8 9-16 0-25 0 0-203-201-203-201-7-7-15-7-24 0 0 0-203 201-203 201-9 9-9 17 0 25 8 8 17 8 26 0"/>
<glyph unicode="&#80;" d="M344 317c8 9 16 9 25 0 9-7 9-15 0-24 0 0-101-98-101-98-7-8-15-8-24 0 0 0-101 98-101 98-9 9-9 17 0 24 9 9 17 9 26 0 0 0 87-79 87-79 0 0 88 79 88 79"/>
<glyph unicode="&#81;" d="M358 374c0 0 0-236 0-236 0 0-204 118-204 118 0 0 204 118 204 118"/>
<glyph unicode="&#82;" d="M293 397c4 6 11 9 20 9 8 0 15-3 21-9 13-12 13-26 0-41 0 0-96-100-96-100 0 0 96-99 96-99 13-15 13-29 0-41-6-6-13-8-21-8-8 0-15 2-20 8 0 0-116 121-116 121-6 5-8 11-8 19 0 8 2 15 8 20 70 74 109 114 116 121"/>
<glyph unicode="&#83;" d="M368 67c9-9 9-18 0-25-8-9-17-9-24 0 0 0-201 202-201 202-8 8-8 16 0 25 0 0 201 202 201 202 7 9 16 9 24 0 9-7 9-16 0-25 0 0-183-190-183-190 0 0 183-189 183-189"/>
<glyph unicode="&#84;" d="M317 169c9-9 9-17 0-25-9-8-17-8-24 0 0 0-99 100-99 100-8 8-8 16 0 25 0 0 99 100 99 100 7 9 15 9 24 0 9-8 9-16 0-25 0 0-80-88-80-88 0 0 80-87 80-87"/>
<glyph unicode="&#85;" d="M144 67c0 0 183 189 183 189 0 0-183 190-183 190-9 9-9 18 0 25 8 9 17 9 24 0 0 0 201-202 201-202 8-9 8-17 0-25 0 0-201-202-201-202-7-9-16-9-24 0-9 7-9 16 0 25"/>
<glyph unicode="&#86;" d="M219 397c0 0 116-121 116-121 5-5 8-12 8-20 0-8-3-14-8-19 0 0-116-121-116-121-5-6-12-8-20-8-9 0-15 2-21 8-12 12-12 26 0 41 0 0 95 99 95 99 0 0-95 100-95 100-12 15-12 29 0 41 6 6 13 9 21 9 9 0 15-3 20-9"/>
<glyph unicode="&#87;" d="M154 374c0 0 204-118 204-118 0 0-204-118-204-118 0 0 0 236 0 236"/>
<glyph unicode="&#88;" d="M248 451c0 0 195-195 195-195 0 0-195-195-195-195 0 0 0 99 0 99 0 0-179 0-179 0 0 0 0 193 0 193 0 0 179 0 179 0 0 0 0 98 0 98"/>
<glyph unicode="&#89;" d="M248 425c0 0 195-169 195-169 0 0-195-169-195-169 0 0 0 98 0 98 0 0-179 0-179 0 0 0 0 143 0 143 0 0 179 0 179 0 0 0 0 97 0 97"/>
<glyph unicode="&#90;" d="M105 152c0 0-54 51-54 51 0 0 152 0 152 0 0 0 0-152 0-152 0 0-51 54-51 54 0 0-75-79-75-79 0 0-51 51-51 51 0 0 79 75 79 75m381 283c0 0-78-74-78-74 0 0 53-51 53-51 0 0-151 0-151 0 0 0 0 151 0 151 0 0 51-53 51-53 0 0 74 78 74 78 0 0 51-51 51-51"/>
<glyph unicode="&#48;" d="M297 459c0 0 162 0 162 0 0 0 0-162 0-162 0 0-51 63-51 63 0 0-75-77-75-77 0 0-51 51-51 51 0 0 77 75 77 75 0 0-62 50-62 50m-118-228c0 0 51-51 51-51 0 0-77-75-77-75 0 0 62-51 62-51 0 0-162 0-162 0 0 0 0 162 0 162 0 0 51-62 51-62 0 0 75 77 75 77"/>
<glyph unicode="&#49;" d="M195 169c0 0 81 87 81 87 0 0-81 88-81 88-9 9-9 17 0 25 9 9 17 9 24 0 0 0 99-100 99-100 8-9 8-17 0-25 0 0-99-100-99-100-7-8-15-8-24 0-9 8-9 16 0 25"/>
<glyph unicode="&#50;" d="M169 195c-9-8-17-8-26 0-8 8-8 16 0 25 0 0 101 97 101 97 9 9 17 9 24 0 0 0 101-97 101-97 8-9 8-17 0-25-9-8-17-8-26 0 0 0-87 80-87 80 0 0-87-80-87-80"/>
<glyph unicode="&#51;" d="M446 143c0 0-190 184-190 184 0 0-189-184-189-184-9-7-18-7-26 0-8 9-8 17 0 26 0 0 203 200 203 200 9 9 17 9 24 0 0 0 203-200 203-200 8-9 8-17 0-26-9-7-17-7-25 0"/>
<glyph unicode="&#52;" d="M396 220c6-5 8-12 8-21 0-8-2-15-8-21-13-13-26-13-40 0 0 0-100 96-100 96 0 0-100-96-100-96-14-13-27-13-40 0-6 6-8 13-8 21 0 9 2 16 8 21 0 0 120 115 120 115 5 5 12 8 20 8 8 0 15-3 20-8 0 0 120-115 120-115"/>
<glyph unicode="&#53;" d="M138 154c0 0 118 204 118 204 0 0 118-204 118-204 0 0-236 0-236 0"/>
<glyph unicode="&#54;" d="M451 249c0 0-99 0-99 0 0 0 0-179 0-179 0 0-192 0-192 0 0 0 0 179 0 179 0 0-99 0-99 0 0 0 195 194 195 194 0 0 195-194 195-194"/>
<glyph unicode="&#55;" d="M425 249c0 0-98 0-98 0 0 0 0-179 0-179 0 0-142 0-142 0 0 0 0 179 0 179 0 0-98 0-98 0 0 0 169 194 169 194 0 0 169-194 169-194"/>
<glyph unicode="&#56;" d="M263 87c0 0-194 169-194 169 0 0 194 169 194 169 0 0 0-97 0-97 0 0 180 0 180 0 0 0 0-143 0-143 0 0-180 0-180 0 0 0 0-98 0-98"/>
<glyph unicode="&#57;" d="M263 451c0 0 0-98 0-98 0 0 180 0 180 0 0 0 0-193 0-193 0 0-180 0-180 0 0 0 0-99 0-99 0 0-194 195-194 195 0 0 194 195 194 195"/>
<glyph unicode="&#33;" d="M213 384l0-192-96 0 139-139 139 139-96 0 0 193c0 23-19 42-43 42-24 0-43-20-43-43z"/>
<glyph unicode="&#34;" d="M384 299l-192 0 0 96-139-139 139-139 0 96 193 0c23 0 42 19 42 43 0 24-20 43-43 43z"/>
<glyph unicode="&#35;" d="M107 213l192 0 0-96 138 139-138 139 0-96-193 0c-23 0-42-19-42-43 0-24 20-43 43-43z"/>
<glyph unicode="&#36;" d="M299 107l0 192 96 0-139 138-139-138 96 0 0-193c0-23 19-42 43-42 24 0 43 20 43 43z"/>
<glyph unicode="&#37;" d="M352 448l-192-192 192-192z"/>
<glyph unicode="&#38;" d="M160 448l192-192-192-192z"/>
<glyph unicode="&#39;" d="M32 96l64-64 160 160 160-160 64 64-160 160 160 160-64 64-160-160-160 160-64-64 160-160z"/>
<glyph unicode="&#40;" d="M32 352l224-224 224 224z"/>
<glyph unicode="&#41;" d="M352 480l-224-224 224-224z"/>
<glyph unicode="&#42;" d="M160 480l224-224-224-224z"/>
<glyph unicode="&#43;" d="M480 160l-224 224-224-224z"/>
<glyph unicode="&#44;" d="M480 256l-128 0 0 224-192 0 0-224-128 0 224-224z"/>
<glyph unicode="&#45;" d="M256 480l0-128 224 0 0-192-224 0 0-128-224 224z"/>
<glyph unicode="&#46;" d="M256 480l0-128-224 0 0-192 224 0 0-128 224 224z"/>
<glyph unicode="&#47;" d="M32 256l128 0 0-224 192 0 0 224 128 0-224 224z"/>
<glyph unicode="&#58;" d="M160 384l32 32 160-160-160-160-32 32 127 128z"/>
<glyph unicode="&#59;" d="M352 397l-150-141 150-141-21-19-171 160 171 160z"/>
<glyph unicode="&#60;" d="M160 397l21 19 171-160-171-160-21 19 150 141z"/>
<glyph unicode="&#61;" d="M350 190c2-2 2-4 2-6 0-2 0-4-2-6 0 0-87-79-88-80-1-1-3-2-6-2-3 0-5 1-6 2-1 1-88 80-88 80-3 3-3 9 0 12 3 3 9 3 12 0l74-67 0 285c0 4 4 8 8 8 4 0 8-4 8-8l0-285 74 67c3 3 9 3 12 0z"/>
<glyph unicode="&#62;" d="M190 162c-2-2-4-2-6-2-2 0-4 0-6 2 0 0-79 87-80 88-1 1-2 3-2 6 0 3 1 5 2 6 1 1 80 88 80 88 3 3 9 3 12 0 3-3 3-9 0-12l-67-74 285 0c4 0 8-4 8-8 0-4-4-8-8-8l-285 0 67-74c3-3 3-9 0-12z"/>
<glyph unicode="&#63;" d="M322 162c-3 3-3 9 0 12l67 74-285 0c-4 0-8 4-8 8 0 4 4 8 8 8l285 0-67 74c-3 3-3 9 0 12 3 3 9 3 12 0 0 0 79-87 80-88 1-1 2-3 2-6 0-3-1-5-2-6-1-1-80-88-80-88-2-2-4-2-6-2-2 0-4 0-6 2z"/>
<glyph unicode="&#64;" d="M350 322c-3-3-9-3-12 0l-74 67 0-285c0-4-4-8-8-8-4 0-8 4-8 8l0 285-74-67c-3-3-9-3-12 0-3 3-3 9 0 12 0 0 87 79 88 80 1 1 3 2 6 2 3 0 5-1 6-2 1-1 88-80 88-80 2-2 2-4 2-6 0-2 0-4-2-6z"/>
<glyph unicode="&#91;" d="M397 160l-141 150-141-150-19 21 160 171 160-171z"/>
<glyph unicode="&#93;" d="M352 384l-127-128 127-128-32-32-160 160 160 160z"/>
<glyph unicode="&#94;" d="M397 352l19-21-160-171-160 171 19 21 141-150z"/>
<glyph unicode="&#95;" d="M340 352l12-12-84-84 84-84-12-12-84 84-84-84-12 12 84 84-84 84 12 12 84-84z"/>
<glyph unicode="&#96;" d="M438 125c14-14 14-37 0-51-14-14-37-14-51 0l-131 131-131-131c-14-14-36-14-50 0-14 14-14 37 0 51l130 131-130 131c-14 14-14 37 0 51 14 14 36 14 50 0l131-131 131 131c14 14 37 14 51 0 14-14 14-37 0-51l-131-131z"/>
<glyph unicode="&#123;" d="M444 125c3-3 4-6 4-10 0-4-1-7-4-10l-38-37c-3-3-5-4-9-4-4 0-7 1-10 4l-131 131-131-131c-3-3-5-4-9-4-4 0-7 1-10 4l-38 37c-3 3-4 6-4 10 0 4 1 7 4 10l132 131-132 130c-5 5-5 15 0 20l37 38c3 2 6 4 10 4 4 0 7-1 10-4l131-130 131 130c3 2 6 4 10 4 4 0 7-1 10-4l37-38c5-5 5-14 0-19l-132-130z"/>
<glyph unicode="&#124;" d="M256 214l174 167c4 4 12 4 16 0l31-30c4-4 4-12 0-16l-213-204c-2-2-5-3-8-3-3 0-6 1-8 3l-213 204c-4 4-4 12 0 16l31 30c4 4 12 4 16 0z"/>
<glyph unicode="&#125;" d="M214 256l167-174c4-4 4-12 0-16l-30-31c-4-4-12-4-16 0l-204 213c-2 2-3 5-3 8 0 3 1 6 3 8l204 213c4 4 12 3 16-1l30-30c4-4 4-12 0-16z"/>
<glyph unicode="&#126;" d="M298 256l-167 174c-4 4-4 12 0 16l30 30c4 4 12 5 16 1l204-213c2-2 3-5 3-8 0-3-1-6-3-8l-204-213c-4-4-12-4-16 0l-30 31c-4 4-4 12 0 16z"/>
<glyph unicode="&#92;" d="M256 298l-174-167c-4-4-12-4-16 0l-31 30c-4 4-4 12 0 16l213 204c2 2 5 3 8 3 3 0 6-1 8-3l213-204c4-4 4-12 0-16l-31-30c-4-4-12-4-16 0z"/>
<glyph unicode="&#57344;" d="M64 256l192 192 0-112 192 0 0-160-192 0 0-112z"/>
<glyph unicode="&#57345;" d="M256 448l192-192-112 0 0-192-160 0 0 192-112 0z"/>
<glyph unicode="&#57346;" d="M256 64l-192 192 112 0 0 192 160 0 0-192 112 0z"/>
<glyph unicode="&#57347;" d="M448 256l-192-192 0 112-192 0 0 160 192 0 0 112z"/>
<glyph unicode="&#57348;" d="M288 416l128 0 0-128-50 50-192-192 50-50-128 0 0 128 50-50 192 192z"/>
<glyph unicode="&#57349;" d="M448 420l-82-82 50-50-128 0 0 128 50-50 82 82z m0-328l-28-28-82 82-50-50 0 128 128 0-50-50z m-384 0l82 82-50 50 128 0 0-128-50 50-82-82z m0 328l28 28 82-82 50 50 0-128-128 0 50 50z"/>
<glyph unicode="&#57350;" d="M460 414l-158-158 158-158-45-46-158 159-159-159-45 46 158 158-158 158 45 46 159-159 158 159z"/>
<glyph unicode="&#57351;" d="M323 384l100-105c6-6 9-14 9-23 0-9-3-16-9-22l-100-106c-12-12-31-12-43 0-12 12-12 34 0 46l48 50-217 0c-17 0-31 14-31 32 0 18 14 32 31 32l217 0-49 50c-12 12-12 34 0 46 12 12 32 12 44 0z"/>
<glyph unicode="&#57352;" d="M128 323l105 100c6 6 14 9 23 9 9 0 16-3 22-9l106-100c12-12 12-31 0-43-12-12-34-12-46 0l-50 48 0-217c0-17-14-31-32-31-18 0-32 14-32 31l0 217-50-49c-12-12-34-12-46 0-12 12-12 32 0 44z"/>
<glyph unicode="&#57353;" d="M189 384c12 12 32 12 44 0 12-12 12-34 0-46l-49-50 217 0c17 0 31-14 31-32 0-18-14-32-31-32l-217 0 48-50c12-12 12-34 0-46-12-12-31-12-43 0l-100 106c-6 6-9 13-9 22 0 9 3 17 9 23z"/>
<glyph unicode="&#57354;" d="M384 189l-105-100c-6-6-14-9-23-9-9 0-16 3-22 9l-106 100c-12 12-12 31 0 43 12 12 34 12 46 0l50-48 0 217c0 17 14 31 32 31 18 0 32-14 32-31l0-217 50 48c12 12 34 12 46 0 12-12 12-31 0-43z"/>
<glyph unicode="&#57355;" d="M99 327c-2 2-3 6-3 9 0 9 8 16 17 16l286 0c9 0 17-7 17-16 0-3-1-6-3-8l-2-3-136-156c-5-5-11-9-19-9-8 0-14 4-19 9l-136 156z"/>
<glyph unicode="&#57356;" d="M185 99c-2-2-6-3-9-3-9 0-16 8-16 17l0 286c0 9 7 17 16 17 3 0 6-1 8-3l3-2 156-136c5-5 9-11 9-19 0-8-4-14-9-19l-156-136z"/>
<glyph unicode="&#57357;" d="M413 185c2-2 3-6 3-9 0-9-8-16-17-16l-286 0c-9 0-17 7-17 16 0 3 1 6 3 8l2 3 136 156c5 5 11 9 19 9 8 0 14-4 19-9l136-156z"/>
<glyph unicode="&#57358;" d="M327 413c2 2 6 3 9 3 9 0 16-8 16-17l0-286c0-9-7-17-16-17-3 0-7 1-9 3l-2 2-156 136c-5 5-9 11-9 19 0 8 4 14 9 19l156 136z"/>
<glyph unicode="&#57359;" d="M274 302l64 64-50 50 128 0 0-128-50 50-64-64z m0-92l28 28 64-64 50 50 0-128-128 0 50 50z m-36 0l-64-64 50-50-128 0 0 128 50-50 64 64z m0 92l-28-28-64 64-50-50 0 128 128 0-50-50z"/>
<glyph unicode="&#57360;" d="M178 224l-105-105-41 41c-18 0-32-14-32-32l0-96c0-18 14-32 32-32l96 0c18 0 32 14 32 32l-41 41 105 105z m302 288l-96 0c-18 0-32-14-32-32l41-41-105-105 46-46 105 105 41-41c18 0 32 14 32 32l0 96c0 18-14 32-32 32z m0-352l-41-41-105 105-46-46 105-105-41-41c0-18 14-32 32-32l96 0c18 0 32 14 32 32l0 96c0 18-14 32-32 32z m-320 320c0 18-14 32-32 32l-96 0c-18 0-32-14-32-32l0-96c0-18 14-32 32-32l41 41 105-105 46 46-105 105z"/>
<glyph unicode="&#57361;" d="M480 352l-41 41-105-105-46 46 105 105-41 41c0 18 14 32 32 32l96 0c18 0 32-14 32-32l0-96c0-18-14-32-32-32z m-320-320c0-18-14-32-32-32l-96 0c-18 0-32 14-32 32l0 96c0 18 14 32 32 32l41-41 105 105 46-46-105-105z"/>
<glyph unicode="&#57362;" d="M288 256l143 142c4 5 6 10 6 16 0 12-11 23-23 23-6 0-11-1-16-6l-142-142-142 142c-5 5-10 6-16 6-12 0-23-11-23-23 0-6 2-11 6-16l143-142-143-142c-4-5-6-10-6-16 0-12 11-23 23-23 6 0 11 1 16 6l142 142 142-142c5-5 10-6 16-6 12 0 23 11 23 23 0 6-2 11-6 16z"/>
<glyph unicode="&#57363;" d="M471 87l-106 105-45-45 105-106-41-41 128 0 0 128z m-430 338l106-105 45 45-105 106 41 41-128 0 0-128z m384 46l-105-106 45-45 106 105 41-41 0 128-128 0z m-233-324l-45 45-106-105-41 41 0-128 128 0-41 41z"/>
<glyph unicode="&#57364;" d="M361 105l106-105 45 45-105 106 41 41-128 0 0-128z m-256 257l-41-42 127 1 1 127-42-41-105 105-45-45z m-105-317l45-45 106 105 41-41 0 128-128 0 41-41z m448 275l-41 42 105 105-45 45-105-105-42 41 0-128z"/>
<glyph unicode="&#57365;" d="M393 73l74-73 45 45-73 74 73 73-192 0 0-192z m-393 247l192 0 0 192-73-73-73 72-45-45 72-73z m0-275l45-45 74 73 73-73 0 192-192 0 73-73z m320 275l192 0-73 73 72 73-45 45-73-72-73 73z"/>
<glyph unicode="&#57366;" d="M439 119l-74 73-45-45 73-74-73-73 192 0 0 192z m-247 393l-192 0 0-192 73 73 73-72 45 45-72 73z m0-365l-45 45-74-73-73 73 0-192 192 0-73 73z m320 365l-192 0 73-73-72-73 45-45 73 72 73-73z"/>
<glyph unicode="&#57367;" d="M512 102l-154 154 154 154-102 102-154-154-154 154-102-102 154-154-154-154 102-102 154 154 154-154z"/>
<glyph unicode="&#57368;" d="M425 128c14-13 35-13 49 0 6 7 10 16 10 24 0 9-4 18-10 24l-218 218-218-218c-13-13-13-35 0-48 14-13 35-13 49 0l169 170z"/>
<glyph unicode="&#57369;" d="M128 87c-13-14-13-35 0-49 7-6 16-10 24-10 9 0 18 4 24 10l218 218-218 218c-13 13-35 13-48 0-13-14-13-35 0-49l170-169z"/>
<glyph unicode="&#57370;" d="M86 384c-13 13-34 13-48 0-6-7-10-16-10-24 0-9 4-18 10-24l218-218 218 218c13 13 13 35 0 48-14 13-35 13-49 0l-169-170z"/>
<glyph unicode="&#57371;" d="M66 294c-11-12-11-31 0-42 12-12 31-12 42 0l118 118 0-312c0-16 14-30 30-30 16 0 30 14 30 30l0 312 118-118c11-12 30-12 42 0 6 6 8 13 8 21 0 8-2 15-8 21l-190 190z"/>
<glyph unicode="&#57372;" d="M294 446c-12 11-31 11-42 0-12-12-12-31 0-42l118-118-312 0c-16 0-30-14-30-30 0-16 14-30 30-30l312 0-118-118c-12-11-12-30 0-42 6-6 13-8 21-8 7 0 15 2 21 8l190 190z"/>
<glyph unicode="&#57373;" d="M218 66c12-11 31-11 42 0 12 12 12 31 0 42l-118 118 312 0c16 0 30 14 30 30 0 16-14 30-30 30l-312 0 118 118c12 11 12 30 0 42-6 5-13 8-21 8-8 0-15-3-21-8l-190-190z"/>
<glyph unicode="&#57374;" d="M446 218c11 12 11 31 0 42-12 12-31 12-42 0l-118-118 0 312c0 16-14 30-30 30-16 0-30-14-30-30l0-312-118 118c-11 12-30 12-42 0-5-6-8-13-8-21 0-7 3-15 8-21l190-190z"/>
<glyph unicode="&#57375;" d="M414 159l-97 97 97 97c17 17 17 44 0 61-17 17-44 17-61 0l-97-97-97 97c-17 17-44 17-61 0-17-17-17-44 0-61l97-97-97-97c-17-17-17-44 0-61 8-8 19-13 30-13 11 0 23 5 31 13l97 97 97-97c9-8 20-13 31-13 11 0 22 5 30 13 17 17 17 44 0 61z"/>
<glyph unicode="&#57376;" d="M343 28l0 195 105 0-191 261-193-261 105 0 0-195z"/>
<glyph unicode="&#57377;" d="M28 169l195 0 0-105 261 192-261 192 0-105-195 0z"/>
<glyph unicode="&#57378;" d="M169 484l0-195-105 0 191-261 193 261-105 0 0 195z"/>
<glyph unicode="&#57379;" d="M449 191l-176 282c0 0-7 11-17 11-10 0-17-11-17-11l-176-282c-14-21-4-38 22-38l72 0 0-99c0-14 11-26 25-26l148 0c14 0 26 12 26 26l0 99 71 0c26 1 36 17 22 38z"/>
<glyph unicode="&#57380;" d="M458 355l-99 0 0 72c0 26-17 36-38 22l-282-176c0 0-11-7-11-17 0-10 11-17 11-17l282-176c21-14 38-4 38 22l0 71 99 0c14 0 26 12 26 26l0 148c0 14-12 25-26 25z"/>
<glyph unicode="&#57381;" d="M427 358l-71 0 0 100c0 14-12 26-26 26l-148 0c-14 0-25-12-25-26l0-99-72 0c-26 0-36-17-22-38l176-282c0 0 7-11 17-11 10 0 17 11 17 11l176 282c14 21 4 37-22 37z"/>
<glyph unicode="&#57382;" d="M256 484c-126 0-228-102-228-228 0-126 102-228 228-228 126 0 228 102 228 228 0 126-102 228-228 228z m94-322c-5-5-12-7-18-7-7 0-13 3-19 7l-57 58-58-58c-5-5-11-7-18-7-6 0-13 3-18 7-10 10-10 26 0 36l58 58-58 58c-10 10-10 26 0 36 10 10 26 10 36 0l58-58 57 58c10 10 26 10 36 0 10-10 10-26 0-36l-57-58 57-58c11-10 11-26 1-36z"/>
<glyph unicode="&#57383;" d="M384 425c13 14 13 35 0 49-7 6-16 10-24 10-9 0-18-4-24-10l-218-218 218-218c13-13 35-13 48 0 13 14 13 35 0 49l-170 169z"/>
<glyph unicode="&#57384;" d="M484 343l-195 0 0 105-261-192 261-192 0 105 195 0z"/>
<glyph unicode="&#57385;" d="M473 273l-282 176c-21 14-37 4-37-22l0-71-100 0c-14 0-26-12-26-26l0-148c0-14 12-26 26-26l99 0 0-71c0-26 17-36 38-22l282 176c0 0 11 7 11 17 0 10-11 17-11 17z"/>
<glyph unicode="&#57386;" d="M256 512c-141 0-256-115-256-256 0-141 115-256 256-256 141 0 256 115 256 256 0 141-115 256-256 256z m0-472c-119 0-216 97-216 216 0 119 97 216 216 216 119 0 216-97 216-216 0-119-97-216-216-216z m128 280l0 64-65 0 17-17-81-81-80 81 16 17-63 0 0-64 17 17 80-81-80-81-17 17 0-64 63 0-16 17 80 81 81-81-17-17 65 0 0 64-17-17-81 81 81 81z"/>
<glyph unicode="&#57387;" d="M256 0c141 0 256 115 256 256 0 141-115 256-256 256-141 0-256-115-256-256 0-141 115-256 256-256z m0 472c119 0 216-97 216-216 0-119-97-216-216-216-119 0-216 97-216 216 0 119 97 216 216 216z m-128-232l198 0-38-41 21-23 75 80-75 80-21-23 38-41-198 0z"/>
<glyph unicode="&#57388;" d="M512 256c0 141-115 256-256 256-141 0-256-115-256-256 0-141 115-256 256-256 141 0 256 115 256 256z m-472 0c0 119 97 216 216 216 119 0 216-97 216-216 0-119-97-216-216-216-119 0-216 97-216 216z m328-30l-112 112-112-112 32-32 80 80 80-80z"/>
<glyph unicode="&#57389;" d="M0 256c0-141 115-256 256-256 141 0 256 115 256 256 0 141-115 256-256 256-141 0-256-115-256-256z m472 0c0-119-97-216-216-216-119 0-216 97-216 216 0 119 97 216 216 216 119 0 216-97 216-216z m-323 49c-7-6-7-16 0-22l96-96c6-7 16-7 22 0l96 96c3 3 5 7 5 11 0 4-2 8-5 11-6 7-16 7-22 0l-85-84-85 84c-6 7-16 7-22 0z"/>
<glyph unicode="&#57390;" d="M256 512c-141 0-256-115-256-256 0-141 115-256 256-256 141 0 256 115 256 256 0 141-115 256-256 256z m0-472c-119 0-216 97-216 216 0 119 97 216 216 216 119 0 216-97 216-216 0-119-97-216-216-216z m128 296l0 48-48 0 0-37-171-171-37 0 0-48 48 0 0 37 171 171z m-32 32l16 0 0-16-16 0z m-192-224l-16 0 0 16 16 0z"/>
<glyph unicode="&#57391;" d="M512 256c0 141-115 256-256 256-141 0-256-115-256-256 0-141 115-256 256-256 141 0 256 115 256 256z m-472 0c0 119 97 216 216 216 119 0 216-97 216-216 0-119-97-216-216-216-119 0-216 97-216 216z m234-87l90 145c10 17 2 24-18 24l-180 0c-20 0-28-7-18-24l90-149c10-16 26-13 36 4z"/>
<glyph unicode="&#57392;" d="M256 512c-141 0-256-115-256-256 0-141 115-256 256-256 141 0 256 115 256 256 0 141-115 256-256 256z m0-472c-119 0-216 97-216 216 0 119 97 216 216 216 119 0 216-97 216-216 0-119-97-216-216-216z m0 109l112 192-224 0z"/>
<glyph unicode="&#57393;" d="M0 256c0-141 115-256 256-256 141 0 256 115 256 256 0 141-115 256-256 256-141 0-256-115-256-256z m472 0c0-119-97-216-216-216-119 0-216 97-216 216 0 119 97 216 216 216 119 0 216-97 216-216z m-232 128l0-198-41 38-23-21 80-75 80 75-23 21-41-38 0 198z"/>
<glyph unicode="&#57394;" d="M256 512c-141 0-256-115-256-256 0-141 115-256 256-256 141 0 256 115 256 256 0 141-115 256-256 256z m0-472c-119 0-216 97-216 216 0 119 97 216 216 216 119 0 216-97 216-216 0-119-97-216-216-216z m-16 312l-112-96 112-96 0 48 144 0 0 96-144 0z"/>
<glyph unicode="&#57395;" d="M0 256c0-141 115-256 256-256 141 0 256 115 256 256 0 141-115 256-256 256-141 0-256-115-256-256z m472 0c0-119-97-216-216-216-119 0-216 97-216 216 0 119 97 216 216 216 119 0 216-97 216-216z m-312-16l96-112 96 112-48 0 0 144-96 0 0-144z"/>
<glyph unicode="&#57396;" d="M256 0c141 0 256 115 256 256 0 141-115 256-256 256-141 0-256-115-256-256 0-141 115-256 256-256z m0 472c119 0 216-97 216-216 0-119-97-216-216-216-119 0-216 97-216 216 0 119 97 216 216 216z m-98-234l146-90c17-10 24-2 24 18l0 180c0 20-7 28-24 18l-149-90c-17-10-14-26 3-36z"/>
<glyph unicode="&#57397;" d="M256 0c141 0 256 115 256 256 0 141-115 256-256 256-141 0-256-115-256-256 0-141 115-256 256-256z m0 472c119 0 216-97 216-216 0-119-97-216-216-216-119 0-216 97-216 216 0 119 97 216 216 216z m76-104l-192-112 192-112z"/>
<glyph unicode="&#57398;" d="M256 512c-141 0-256-115-256-256 0-141 115-256 256-256 141 0 256 115 256 256 0 141-115 256-256 256z m0-472c-119 0-216 97-216 216 0 119 97 216 216 216 119 0 216-97 216-216 0-119-97-216-216-216z m128 232l-198 0 38 41-21 23-75-80 75-80 21 23-38 41 198 0z"/>
<glyph unicode="&#57399;" d="M256 512c-141 0-256-115-256-256 0-141 115-256 256-256 141 0 256 115 256 256 0 141-115 256-256 256z m0-472c-119 0-216 97-216 216 0 119 97 216 216 216 119 0 216-97 216-216 0-119-97-216-216-216z m49 323c-6 7-16 7-22 0l-96-96c-7-6-7-16 0-22l96-96c3-3 7-5 11-5 4 0 8 2 11 5 7 6 7 16 0 22l-84 85 84 85c7 6 7 16 0 22z"/>
<glyph unicode="&#57400;" d="M256 512c-141 0-256-115-256-256 0-141 115-256 256-256 141 0 256 115 256 256 0 141-115 256-256 256z m0-472c-119 0-216 97-216 216 0 119 97 216 216 216 119 0 216-97 216-216 0-119-97-216-216-216z m30 328l-112-112 112-112 32 32-80 80 80 80z"/>
<glyph unicode="&#57401;" d="M256 512c-141 0-256-115-256-256 0-141 115-256 256-256 141 0 256 115 256 256 0 141-115 256-256 256z m0-472c-119 0-216 97-216 216 0 119 97 216 216 216 119 0 216-97 216-216 0-119-97-216-216-216z m-32 328l-80 0 0-80 24 24 40-40 32 32-40 40z m80-128l-32-32 40-40-24-24 80 0 0 80-24-24z"/>
<glyph unicode="&#57402;" d="M256 512c-141 0-256-115-256-256 0-141 115-256 256-256 141 0 256 115 256 256 0 141-115 256-256 256z m0-472c-119 0-216 97-216 216 0 119 97 216 216 216 119 0 216-97 216-216 0-119-97-216-216-216z m-32 328l-80 0 0-80 24 24 40-40 32 32-40 40z m64-224l80 0 0 80-24-24-40 40-32-32 40-40z m80 144l0 80-80 0 24-24-40-40 32-32 40 40z m-224-64l0-80 80 0-24 24 40 40-32 32-40-40z"/>
<glyph unicode="&#57403;" d="M256 512c-141 0-256-115-256-256 0-141 115-256 256-256 141 0 256 115 256 256 0 141-115 256-256 256z m0-472c-119 0-216 97-216 216 0 119 97 216 216 216 119 0 216-97 216-216 0-119-97-216-216-216z m-80 328l-32-32 40-40-24-24 80 0 0 80-24-24z m176-128l-80 0 0-80 24 24 40-40 32 32-40 40z"/>
<glyph unicode="&#57404;" d="M256 512c-141 0-256-115-256-256 0-141 115-256 256-256 141 0 256 115 256 256 0 141-115 256-256 256z m0-472c-119 0-216 97-216 216 0 119 97 216 216 216 119 0 216-97 216-216 0-119-97-216-216-216z m-96 232l80 0 0 80-24-24-40 40-32-32 40-40z m168-56l24 24-80 0 0-80 24 24 40-40 32 32z m0 80l40 40-32 32-40-40-24 24 0-80 80 0z m-144-80l-40-40 32-32 40 40 24-24 0 80-80 0z"/>
<glyph unicode="&#57405;" d="M256 512c-141 0-256-115-256-256 0-141 115-256 256-256 141 0 256 115 256 256 0 141-115 256-256 256z m0-472c-119 0-216 97-216 216 0 119 97 216 216 216 119 0 216-97 216-216 0-119-97-216-216-216z m-86 104l192 112-192 112z"/>
<glyph unicode="&#57406;" d="M256 512c-141 0-256-115-256-256 0-141 115-256 256-256 141 0 256 115 256 256 0 141-115 256-256 256z m0-472c-119 0-216 97-216 216 0 119 97 216 216 216 119 0 216-97 216-216 0-119-97-216-216-216z m98 234l-155 90c-16 10-32 2-32-18l0-180c0-20 16-28 32-18l153 90c17 10 19 26 2 36z"/>
<glyph unicode="&#57407;" d="M256 0c141 0 256 115 256 256 0 141-115 256-256 256-141 0-256-115-256-256 0-141 115-256 256-256z m0 472c119 0 216-97 216-216 0-119-97-216-216-216-119 0-216 97-216 216 0 119 97 216 216 216z m-43-323c6-7 16-7 22 0l96 96c7 6 7 16 0 22l-96 96c-3 3-7 5-11 5-4 0-8-2-11-5-7-6-7-16 0-22l84-85-84-85c-7-6-7-16 0-22z"/>
<glyph unicode="&#57408;" d="M256 0c141 0 256 115 256 256 0 141-115 256-256 256-141 0-256-115-256-256 0-141 115-256 256-256z m0 472c119 0 216-97 216-216 0-119-97-216-216-216-119 0-216 97-216 216 0 119 97 216 216 216z m-30-328l112 112-112 112-32-32 80-80-80-80z"/>
<glyph unicode="&#57409;" d="M512 256c0 141-115 256-256 256-141 0-256-115-256-256 0-141 115-256 256-256 141 0 256 115 256 256z m-472 0c0 119 97 216 216 216 119 0 216-97 216-216 0-119-97-216-216-216-119 0-216 97-216 216z m312 16l-96 112-96-112 48 0 0-144 96 0 0 144z"/>
<glyph unicode="&#57410;" d="M0 256c0-141 115-256 256-256 141 0 256 115 256 256 0 141-115 256-256 256-141 0-256-115-256-256z m472 0c0-119-97-216-216-216-119 0-216 97-216 216 0 119 97 216 216 216 119 0 216-97 216-216z m-234 98l-90-155c-10-16-2-33 18-33l180 0c20 0 28 17 18 33l-90 153c-10 17-26 19-36 2z"/>
<glyph unicode="&#57411;" d="M256 512c-141 0-256-115-256-256 0-141 115-256 256-256 141 0 256 115 256 256 0 141-115 256-256 256z m0-472c-119 0-216 97-216 216 0 119 97 216 216 216 119 0 216-97 216-216 0-119-97-216-216-216z m-112 129l224 0-112 192z"/>
<glyph unicode="&#57412;" d="M512 256c0 141-115 256-256 256-141 0-256-115-256-256 0-141 115-256 256-256 141 0 256 115 256 256z m-472 0c0 119 97 216 216 216 119 0 216-97 216-216 0-119-97-216-216-216-119 0-216 97-216 216z m232-128l0 198 41-38 23 21-80 75-80-75 23-21 41 38 0-198z"/>
<glyph unicode="&#57413;" d="M512 256c0 141-115 256-256 256-141 0-256-115-256-256 0-141 115-256 256-256 141 0 256 115 256 256z m-472 0c0 119 97 216 216 216 119 0 216-97 216-216 0-119-97-216-216-216-119 0-216 97-216 216z m323-43c7 6 7 16 0 22l-96 96c-6 7-16 7-22 0l-96-96c-3-3-5-7-5-11 0-4 2-8 5-11 6-7 16-7 22 0l85 84 85-84c6-7 16-7 22 0z"/>
<glyph unicode="&#57414;" d="M335 358l-79-79-79 79-23-23 79-79-79-79 23-23 79 79 79-79 23 23-79 79 79 79z m-79 154c-141 0-256-115-256-256 0-141 115-256 256-256 141 0 256 115 256 256 0 141-115 256-256 256z m0-472c-119 0-216 97-216 216 0 119 97 216 216 216 119 0 216-97 216-216 0-119-97-216-216-216z"/>
<glyph unicode="&#57415;" d="M36 476l0-152 53 53 121-121-121-122-53 52 0-150 152 0-53 53 121 121 122-121-52-53 150 0 0 152-53-53-121 121 121 122 53-52 0 150-152 0 53-53-121-121-122 121 52 53z"/>
<glyph unicode="&#57416;" d="M282 475l65-64-89-89 64-64 89 89 64-65 0 193z m-92-221l-89-89-64 65 0-193 193 0-65 64 89 89z"/>
<glyph unicode="&#57417;" d="M91 386l165-260 165 260z"/>
<glyph unicode="&#57418;" d="M393 91l-274 165 274 165z"/>
<glyph unicode="&#57419;" d="M119 421l274-165-274-165z"/>
<glyph unicode="&#57420;" d="M91 119l165 274 165-274z"/>
<glyph unicode="&#57421;" d="M137 256l183-183 55 55-129 128 129 128-55 55-128-129-55-54z"/>
<glyph unicode="&#57422;" d="M375 256l-55 54-128 129-55-55 129-128-129-128 55-55 128 129 55 54z"/>
<glyph unicode="&#57423;" d="M256 375l-55-55-128-128 54-55 129 129 129-129 54 55-128 128z"/>
<glyph unicode="&#57424;" d="M256 137l55 55 128 128-54 55-129-129-129 129-54-55 128-128 55-55z"/>
<glyph unicode="&#57425;" d="M37 379l122-123-122-123 96-96 123 122 123-122 96 96-122 123 122 123-96 96-123-122-123 122z"/>
<glyph unicode="&#57426;" d="M411 475l-88-88-65 65 0-194 194 0-65 65 88 88z m-351-221l65-65-88-88 64-64 88 88 65-65 0 194z"/>
<glyph unicode="&#57427;" d="M256 109l216 252-48 42-168-196-168 196-48-42z"/>
<glyph unicode="&#57428;" d="M361 40l42 48-196 168 196 168-42 48-252-216z"/>
<glyph unicode="&#57429;" d="M151 40l252 216-252 216-42-48 196-168-196-168z"/>
<glyph unicode="&#57430;" d="M88 109l168 196 168-196 48 42-216 252-216-252z"/>
<glyph unicode="&#57431;" d="M256 448c106 0 192-86 192-192 0-106-86-192-192-192-106 0-192 86-192 192 0 106 86 192 192 192m0 32c-123 0-224-101-224-224 0-123 101-224 224-224 123 0 224 101 224 224 0 123-101 224-224 224z m86-288l-91 110-92-110-42 0 134 160 133-160z"/>
<glyph unicode="&#57432;" d="M256 448c106 0 192-86 192-192 0-106-86-192-192-192-106 0-192 86-192 192 0 106 86 192 192 192m0 32c-123 0-224-101-224-224 0-123 101-224 224-224 123 0 224 101 224 224 0 123-101 224-224 224z m-64-310l110 91-110 92 0 42 160-134-160-133z"/>
<glyph unicode="&#57433;" d="M256 448c106 0 192-86 192-192 0-106-86-192-192-192-106 0-192 86-192 192 0 106 86 192 192 192m0 32c-123 0-224-101-224-224 0-123 101-224 224-224 123 0 224 101 224 224 0 123-101 224-224 224z m64-138l-110-91 110-92 0-42-160 134 160 133z"/>
<glyph unicode="&#57434;" d="M256 448c106 0 192-86 192-192 0-106-86-192-192-192-106 0-192 86-192 192 0 106 86 192 192 192m0 32c-123 0-224-101-224-224 0-123 101-224 224-224 123 0 224 101 224 224 0 123-101 224-224 224z m-86-160l91-110 92 110 42 0-134-160-133 160z"/>
</font>
</defs>
</svg>
